#TITLE:Honey;
#SUBTITLE:Dead Master;
#ARTIST:Kara;
#TITLETRANSLIT:;
#SUBTITLETRANSLIT:;
#ARTISTTRANSLIT:;
#CREDIT:;
#BANNER:bn.jpg;
#BACKGROUND:bg.jpg;
#LYRICSPATH:;
#CDTITLE:cd.png;
#MUSIC:Kara-Honey.mp3;
#OFFSET:-0.592;
#SAMPLESTART:43.404;
#SAMPLELENGTH:12.000;
#SELECTABLE:YES;
#BPMS:0.000=140.148;
#STOPS:;
#BGCHANGES:;
// cache tags:
#FIRSTBEAT:0.000;
#LASTBEAT:311.750;
#SONGFILENAME:Songs/sdf/Kara (Honey)/Honey.sm;
#HASMUSIC:1;
#HASBANNER:1;
#MUSICLENGTH:137.359;
// end cache tags

//---------------dance-single - ----------------
#NOTES:
     dance-single:
     :
     Hard:
     1:
     0.853,0.879,1.000,0.167,1.000,607.000,188.000,23.000,0.000,3.000:
1000
0000
0000
0001
0000
0000
0100
0000
0001
0000
0001
1000
0000
0001
0000
0100
,
0000
0000
0010
0000
0000
1001
0000
0000
0010
0000
0100
0001
0010
0000
1001
0000
,
0000
0010
0100
0000
0000
1001
0000
0000
0000
0100
0010
0000
0000
0001
1000
0000
,
0000
0000
0110
0000
0000
0001
0100
0001
0000
0001
1000
0000
0010
0000
0110
0000
,
0000
0000
1001
0000
0000
0000
0110
0000
0000
0000
1001
0000
0000
0010
0100
0000
,
0000
0001
1000
0000
0000
0001
0000
0001
0001
0000
0100
0000
1000
0000
0000
0020
,
0000
0000
0000
0000
0000
0000
0030
0100
0000
1000
0000
0001
0000
0001
0000
0001
,
0000
0100
0000
0010
0000
1000
0000
0001
0000
0000
0110
0100
0001
0000
0000
1010
,
0000
0001
0110
0000
1001
0000
0010
0100
1001
0000
0010
0100
0001
0100
0101
0000
,
0101
0000
1010
0000
1001
0000
0101
0000
0000
0000
0001
0000
0000
0000
0010
1000
,
0010
0001
0100
0000
0110
0000
1001
0000
0010
0100
0001
1000
0010
0100
0001
0000
,
1000
0010
0100
0101
0000
0000
0000
0001
0000
0000
0001
0000
0000
0000
0010
0000
,
0010
0000
0000
1001
0000
0110
0000
0110
0000
1001
0000
0000
0110
0000
1001
0000
,
0110
1001
1001
0001
0000
0001
0000
0110
,
0110
0000
1001
0000
0000
0110
0000
1001
0000
0010
0100
0001
0000
0001
0000
0001
,
0000
1000
0100
0000
0000
0010
0010
0000
0010
2000
0000
0100
3000
0010
0000
0001
,
0000
0010
0100
0010
1000
0001
0101
0000
,
0010
0000
0001
0000
0100
0000
0010
0000
0010
0000
1000
0000
0001
0000
0100
0010
,
0000
0000
0110
0000
0100
0000
0000
0010
0000
0100
0000
0001
0000
1000
0000
0010
,
0000
0100
0000
0001
0000
0100
0000
0001
0000
0001
0001
0000
0001
0000
1000
0010
,
0000
0100
0000
0010
0100
0000
0010
0000
0100
0000
0010
0000
1000
0000
0001
0000
,
0000
0100
0010
0000
0000
0100
0010
0000
0000
0100
0010
0000
0100
0000
0001
0000
,
1000
0000
0010
0100
0000
0000
0000
0010
0100
0000
0010
0000
0100
0000
0010
0000
,
0000
1000
0000
0010
0000
0100
0010
0000
0110
0000
0000
0100
0001
0000
0000
0110
,
0000
0000
1001
0000
0000
0000
0001
0100
0000
0000
0001
1000
0001
1000
0000
0000
,
0110
0000
0000
0000
0000
0101
0000
0101
0000
0101
0000
1010
0000
0100
0000
0110
,
0000
0000
0000
1001
0000
0000
0110
0000
0000
0000
1001
0000
1001
0000
0000
0000
,
0110
0000
0000
0000
0101
0000
0101
0000
0000
0010
1000
1000
0001
0001
0100
0001
,
0000
0000
1001
0000
0000
0000
1001
0000
0000
0000
0010
0100
0101
0002
0000
0000
,
0000
0000
0000
0003
0010
0000
1010
0000
0100
0010
0000
0010
0000
0001
0000
0020
,
0000
0000
0000
0000
0000
0000
0000
0000
0030
1000
0100
0000
0010
0010
0000
0002
,
0000
0000
0003
0010
0000
0000
0101
0000
0000
0000
1010
0000
0000
0000
1101
0000
,
0000
0000
0110
0000
0000
0000
1001
0000
1001
0000
0101
0010
0000
0000
1001
0001
,
1000
0000
0101
0000
0000
0010
0100
0001
1000
0010
0100
0001
0000
1001
0000
1101
,
0000
0000
0101
0000
0000
0000
1010
1001
0000
0000
0001
0101
0000
0000
0001
1000
,
1001
0000
0000
0001
0000
0000
0000
0110
0110
0000
1001
0000
0000
0110
0101
0000
,
0000
0000
0101
0000
0101
0000
0010
1000
0000
0000
0101
0000
0101
0000
0000
1001
,
0001
0000
0000
0001
0000
0001
0001
0000
2000
0000
0110
3000
0000
0010
0002
0010
,
0000
2003
0000
0100
3000
0000
0020
0000
0000
0000
0000
0000
0000
0000
0000
0030
,
0000
2000
0000
0100
3010
0000
0001
0010
0000
1100
0000
0100
0010
0000
0001
0100
,
0001
0100
0001
0000
0001
0000
0001
0100
0001
0000
0001
0000
0001
0000
0001
0000
,
0001
0000
0001
0000
0000
0000
1010
0000
1001
0010
0100
0000
0110
0000
0101
0000
,
0001
0000
0001
0000
0000
0001
0000
0001
0000
0000
0001
0000
0001
0000
0001
0000
,
1001
0000
1000
0001
0000
0000
0000
0110
0000
0101
0000
1010
0000
0110
0000
0110
,
0000
0000
0001
0010
2000
0100
3000
0010
0000
0100
0010
0001
0010
0000
2100
0000
,
0200
3000
0000
0000
0000
0310
0000
0001
0010
1000
0000
0100
0010
0010
0000
0000
,
0002
0000
0000
0000
0000
0013
0010
0000
1000
0200
0000
0000
0000
0000
0000
0000
,
0300
0010
0000
0000
0010
0000
0010
0000
0010
0000
0000
0001
0000
0001
0000
0000
,
1010
0000
0001
0100
0000
0010
1001
0000
0110
0000
1001
0000
0010
0100
0001
1000
,
0000
0001
0000
0110
0000
1001
0000
0110
0000
1001
0000
0110
0000
1001
0000
0010
,
0100
0000
0101
0000
1010
0001
0100
0010
0000
1001
0000
0110
0000
1001
0000
0001
,
0100
0110
0000
1001
0000
0010
0100
0001
1100
0000
0110
0000
1001
0000
0000
0110
,
0000
0101
0000
1010
0000
0101
0000
0101
0000
0001
1000
0001
0100
0100
0010
1000
,
0001
0000
0110
0000
1001
0000
0000
0110
0000
1001
0000
0110
0000
1001
0000
0000
,
0110
0001
0100
0000
1010
0000
0001
0100
0000
0010
0000
0110
0000
0001
1020
0000
,
0000
0000
0000
0000
0000
0000
0000
0030
1000
0001
0110
0000
0010
0000
0200
0000
,
0000
0000
0000
0310
0001
0010
0000
1001
0000
0000
0000
0101
0001
0100
0000
1010
,
0000
0101
0000
0110
0000
0000
1001
0100
0010
0000
1001
0000
0110
0000
1001
0000
,
0110
0000
0001
0000
0000
0000
0001
0100
0110
0000
1001
0000
0000
0110
0001
0100
,
0000
0000
0000
1010
1001
0000
0101
0000
0110
0000
1001
0000
0010
0100
0101
0000
,
0010
0000
0000
1001
0000
0000
0010
0100
0101
0000
0010
1000
0001
0000
0110
0001
,
1000
0000
0101
0000
0101
0001
0100
0000
1010
0000
1000
0001
0000
0001
0100
0000
,
1010
0000
0110
0000
0101
0001
0100
0000
1010
0000
0010
0000
0100
0001
0000
0010
,
2000
0000
0000
0000
0000
3010
0000
0020
0000
0200
0030
0000
0000
0000
0000
0000
,
0310
0000
0011
0000
1000
0000
0100
0010
0000
0010
0000
0000
0010
0000
0000
0001
,
0000
0000
0001
0100
0101
0000
0000
0010
1000
0001
1000
0000
1001
0000
0000
0110
,
0000
0100
0100
0010
0000
0000
1001
0000
1001
0000
0110
0000
0100
0000
1001
0000
,
1001
0000
0000
0101
0000
0101
0000
1010
0000
1010
0000
0101
0000
0000
0101
0000
,
1010
1010
0000
0001
0100
0000
0000
1010
0000
0001
1000
0010
0100
0001
1000
0001
,
0000
0110
0000
0000
0101
0000
1010
0000
0001
0100
0010
0000
1001
0000
0010
0100
,
0110
0000
0000
1001
0000
0001
1000
0000
0010
0100
0010
0000
1001
0000
0010
0020
,
0000
0000
0000
0000
0030
1000
0100
0000
0020
0000
0000
0000
0000
0000
0000
0000
,
0000
1030
0000
0000
1000
0000
0010
0010
0000
0001
0000
0001
0100
0000
0000
1010
,
0000
1010
0000
0000
0001
0000
0001
0001
0000
0001
0000
0001
0000
0000
1000
0000
,
1000
1000
0000
1000
0000
0010
0000
0010
0010
0000
0100
0000
0100
0000
0001
0000
,
0001
0001
0000
0100
0000
0000
0010
0010
0000
0010
0000
0010
0000
1000
0000
0010
,
0000
0010
0000
0010
0000
0010
0100
0000
0001
0001
0000
0000
0001
0001
0000
0000
,
0000
0000
0002
0000
0000
0000
0000
0000
0000
0000
0000
0000
0000
0000
0000
0003
;
